Warezik.eu - Forum wielotematyczne,download,dyskusyjne,warez,portal warez

Filmy Oferta różnego rodzaju filmów, bajek, dokumentów Discovery i National Geographic, seriali oraz animacji. Do pobrania w formatach avi, rmvb, mkv, DVD, HD oraz BluRay.


 
Narzędzia wątku
Stare 11-07-2011, 13:31   #1
robex24
Senior Member
 
Awatar robex24
 
Dołączył: Dec 2010
Posty: 1,007
Domyślnie Jumper (2008)

Jumper (2008) DVDrip XviD AC3 Vision / Lektor PL



Fantastyczny film przygodowy w rezyserii Douga Limana ("Tozsamosc Bourne'a", "Mr. and Mrs. Smith"). Mlody chlopak odkrywa, ze posiadl zdolnosc teleportacji, dzieki ktorej moze przenosic sie z miejsca na miejsce i postanawia odnalezc czlowieka odpowiedzialnego za smierc swego ojca. W rolach glownych: Hayden Christensen ("Gwiezdne wojny"), Samuel L. Jackson ("Pulp Fiction"), Diane Lane ("Niewierna"), Tom Hulce ("Amadeusz"), Jamie Bell ("King Kong") i Rachel Bilson (serial TV "Zycie na fali").

Cytat:
Format : AVI
Format/Info : Audio Video Interleave
File size : 713 MiB
Duration : 1h 24mn
Overall bit rate : 1 176 Kbps
Writing application : VirtualDubMod 1.5.4.1 (build 2178/release)
Writing library : VirtualDubMod build 2178/release

Video
ID : 0
Format : MPEG-4 Visual
Format profile : Advanced [email protected]
Format settings, BVOP : 1
Format settings, QPel : No
Format settings, GMC : No warppoints
Format settings, Matrix : Custom
Codec ID : XVID
Codec ID/Hint : XviD
Duration : 1h 24mn
Bit rate : 1 048 Kbps
Width : 608 pixels
Height : 256 pixels
Display aspect ratio : 2.35:1
Frame rate : 25.000 fps
Color space : YUV
Chroma subsampling : 4:2:0
Bit depth : 8 bits
Scan type : Progressive
Compression mode : Lossy
Bits/(Pixel*Frame) : 0.269
Stream size : 635 MiB (89%)
Writing library : XviD 1.1.0 (UTC 2005-11-22)

Audio
ID : 1
Format : MPEG Audio
Format version : Version 1
Format profile : Layer 3
Mode : Joint stereo
Mode extension : MS Stereo
Codec ID : 55
Codec ID/Hint : MP3
Duration : 1h 24mn
Bit rate mode : Variable
Bit rate : 115 Kbps
Nominal bit rate : 128 Kbps
Channel(s) : 2 channels
Sampling rate : 48.0 KHz
Compression mode : Lossy
Stream size : 69.8 MiB (10%)
Alignment : Aligned on interleaves
Interleave, duration : 24 ms (0.60 video frame)
Interleave, preload duration : 160 ms
Writing library : LAME3.97
Encoding settings : -m j -V 4 -q 2 -lowpass 17 --abr 128
Language : Polish



Kod:
Treść widoczna tylko dla zarejestrowanych użytkowników. Zaloguj się lub załóż darmowe konto na forum aby otrzymać dostęp działu "Free download".




Kod:
Treść widoczna tylko dla zarejestrowanych użytkowników. Zaloguj się lub załóż darmowe konto na forum aby otrzymać dostęp działu "Free download".




Kod:
Treść widoczna tylko dla zarejestrowanych użytkowników. Zaloguj się lub załóż darmowe konto na forum aby otrzymać dostęp działu "Free download".


robex24 jest nieaktywny  

 #1.5
Pierwsza Dama Warezika

Avatar Pierwsza Dama Warezika
 
Dołączyła: 2007
Wiek: 18
Posty: 5498
Reputacja: 2908
Jumper (2008)

online  
Stare 02-04-2022, 12:46   #2
Trytonik
Senior Member
 
Awatar Trytonik
 
Dołączył: Jun 2011
Posty: 1,149
Domyślnie Skoczek / Jumper (2008)

Skoczek / Jumper (2008) PL.BRRip.XviD-NINE / Lektor PL

Spoiler:



Cytat:
VIDEO: XviD, 986kbps
AUDIO: MP3, 48KHz, 112kbps
RUNTIME: 01:28:22
FILE SIZE: 700MB
Kod:
Treść widoczna tylko dla zarejestrowanych użytkowników. Zaloguj się lub załóż darmowe konto na forum aby otrzymać dostęp działu "Free download".


Trytonik jest nieaktywny  


Sprawdź także:

Podobne wątki do: Jumper (2008)
Wątek Autor wątku Forum Odpowiedzi Ostatni post / autor
Jumper (2008) kepinaa Filmy 10 22-03-2012 18:10
Jumper (2008) robex24 Filmy 0 12-07-2011 10:47
Skoczek / Jumper 2008 tomis123 Filmy 0 28-03-2010 16:42
[RS/MU]Jumper (2008) Q-kla Filmy 1 16-03-2009 15:53
[RS]Jumper (2008) aldekvv Filmy 3 26-01-2009 16:43

Narzędzia wątku



O Warezik.eu
Wielotematyczne forum Warezik.eu jest serwisem dyskusyjnym dla młodzieży służącym wspólnej wymianie doświadczeń, wymianie plikami, rozmowom, pobieraniu, rozwiązywaniu problemów, ściąganiu, pomocy.
Serwisy podobne do Warezika mogące mieć wspolną tematykęto: peb, darkwarez, precyl, elitewarez, zajefajna, exsite, megawarez, ajo, pirate bay, torrent, p2m.
W dziale download nasi użytkownicy wymieniają się z innymi użytkownikami plikami które są hostowane między innymi na serwerach tych serwisów: Rapidshare, Turbobit, Freakshare, Chomikuj, Bitshare, Uploading, Letitbit, Uploaded, Hotfile, Netload, Mediafire, 4shared, Zshare, FilePost, Depositfiles, Filefactory, Rapidgator, Hellshare, Hitfile, Extabit, Crocko, Ifile, ShareFlare, BayFiles, Jumbofiles, Vip-File, Share-Online, Uploadfloor, Oron, Fiberupload, Filevelocity, Filesonic, Megaupload, Megavideo, VideoBB, Putlocker, Ifilez, Fastshare.
Słowa kluczowe związane z serwisem za pomocą których forum jest rozpoznawane w sieci to: warezik.pl,pobieranie plików,forum wielotematyczne,forum tematyczne,download,ściąganie,za darmo,do pobrania,free,gry,filmy,muzyka,porno,erotyka,podrywacze,gry java,aplikacje gsm,aplikacje symbian,forum do rozmów,warez,portal warez,polski warez.
Powered by vBulletin®
Copyright © Warezik.eu 2007 - 2021
Czasy w strefie GMT +1. Teraz jest 21:33.